FACEBOOK
FILMY > DIVX / XVID > Fantasy

  • *
Głosów: 0
Jack pogromca olbrzymów - Jack The Giant Slayer (2013)[CAM XVID][ENG]
(17-03-2013)
Dodał: ...Kropka...
Rozmiar: 691.84 MB
Seed: 45
Peer: 30
Komentarzy: 0

Jack pogromca olbrzymów - Jack The Giant Slayer (2013)[CAM XVID][ENG]

Kategoria: FILMY -> DIVX / XVID
Zaakceptował: nie wymagał akceptacji
Liczba pobrań: 0
Liczba komentarzy: 0
Ostatnia aktualizacja: 2013-03-28 14:35:22
OPIS


gatunek: Fantasy, Przygodowy
produkcja: USA
premiera: 15 marca 2013  (Polska)  27 lutego 2013  (świat)
reżyseria: Bryan Singer
scenariusz: Darren Lemke, Christopher McQuarrie, Dan Studney


Alternatywna wersja bajki o Jasiu i magicznej fasoli. Młody rolnik Jack bierze udział w wyprawie do królestwa olbrzymów, by ocalić porwaną księżniczkę.

Nicholas Hoult - Jack  
Eleanor Tomlinson- Isabelle  
Ewan McGregor - Elmont  
Stanley Tucci - Roderick  
Eddie Marsan - Crawe
Ewen Bremner - Wicke


Format : AVI
Format/Info : Audio Video Interleave
File size : 692 MiB
Duration : 1h 43mn
Overall bit rate mode : Variable
Overall bit rate : 934 Kbps

Video
ID : 0
Format : MPEG-4 Visual
Format profile : Advanced Simple@L5
Format settings, BVOP : 2
Format settings, QPel : Yes
Format settings, GMC : No warppoints
Format settings, Matrix : Default (H.263)
Codec ID : XVID
Codec ID/Hint : XviD
Duration : 1h 43mn
Bit rate : 801 Kbps
Width : 672 pixels
Height : 352 pixels
Display aspect ratio : 1.909
Frame rate : 29.970 fps
Color space : YUV
Chroma subsampling : 4:2:0
Bit depth : 8 bits
Scan type : Progressive
Compression mode : Lossy
Bits/(Pixel*Frame) : 0.113
Stream size : 593 MiB (86%)

Audio
ID : 1
Format : MPEG Audio
Format version : Version 1
Format profile : Layer 3
Mode : Joint stereo
Mode extension : MS Stereo
Codec ID : 55
Codec ID/Hint : MP3
Duration : 1h 43mn
Bit rate mode : Variable
Bit rate : 119 Kbps
Nominal bit rate : 128 Kbps
Channel(s) : 2 channels
Sampling rate : 48.0 KHz
Compression mode : Lossy
Stream size : 88.3 MiB (13%)
Alignment : Aligned on interleaves
DETALE TORRENTA:[ Pokaż/Ukryj ]
Podziękowali:

Brak komentarzy

Zaloguj się aby skomentować