FACEBOOK
GOOGLE+

  • *
Głosów: 0
Czerwona Róża / Rose Red  [mini serial - komplet] (2002) [DVDRip Rmvb] [Lektor PL]
(24-06-2013)
Dodał: TheCrow
Rozmiar: 875.90 MB
Seed: 20
Peer: 20
Komentarzy: 0

Czerwona Róża / Rose Red [mini serial - komplet] (2002) [DVDRip Rmvb] [Lektor PL]

Kategoria: TV / SERIALE -> ZAGRANICZNE
Zaakceptował: TheCrow
Liczba pobrań: 2
Liczba komentarzy: 0
Ostatnia aktualizacja: 2013-06-24 16:48:35
OPIS

Reżyseria: Steve Beck
Premiera: 27 stycznia 2002
Gatunek: Horror
Produkcja: USA , Kanada
Czas trwania: 4 godz. 14 min.
Odcinki: 3


Film zaczyna się od momentu gdy mała Annie Wheaton siedzi w swoim pokoju i rysuje dom swoich sąsiadów. Jednak nie był to zwykły rysunek, ponieważ gdy mała Annie zaczęła niszczyć swój obrazek, na dom sąsiadów zaczęły spadać kamienie. Wszystko przez to, że pies sąsiadów ugryzł Annie... Po tym paranormalnym wydarzeniu akcja filmu przenosi się 9 lat pźniej... Dr Joyce Reardon jest zafascynowana Czerwoną Różą, domem, który został wybudowany na początku XX wieku i który aż do 1995 rozbudowywał się. Dom nie był zwykłym domem. Już podczas jego budowy zginęło kilku mężczyzn. A do lat dwiewiędziesiątych XX zniknęło ponad 20 osób... Dr Joyce Reardon pragnie udać się do "martwej komórki" wraz z grupą psychologów, by ożywić Czerwoną Różę, która od 1995 roku przesała się rozbudowywać. Każdy członek jej grupy ma inne zdolności paranormalne, jednak największą siłą dysponuje Annie, która miała być kluczem do Róży. Wyprawa badawcza była ostro krytykowana przez profesora Millera. Profesor uważał, że dane badnia niczego nie wykażą, a jedyne co może osiągnąć pani profesor to zwolnienie z uczelni oraz stasnie się pośmiewiskiem wśród grona pedagogicznego. Jednak Joyce Reardon się nie poddaje i wraz z całą grupą udaje się do przeklętego domu... Czerwona Róża nie była gościnna dla grupy dr. Joyce Reardon.


Nancy Travis - Dr Joyce Reardon
Matt Keeslar - Matt Keeslar
Kimberly J. Brown - Annie Wheaton
David Dukes - Profesor Miller
Judith Ivey - Cathy Kramer
Melanie Lynskey - Rachel Weaton


  Format : RealMedia
  File size : 289 MiB
  Duration : 1h 20mn
  Overall bit rate : 491 Kbps

Video #1
  ID : 1
  Format : RealVideo 4
  Codec ID : RV40
  Codec ID/Info : Based on AVC (H.264), Real Player 9
  Duration : 1h 20mn
  Bit rate : 427 Kbps
  Width : 640 pixels
  Height : 480 pixels
  Display aspect ratio : 4:3
  Frame rate : 25.000 fps
  Bits/(Pixel*Frame) : 0.056
  Stream size : 246 MiB (85%)
Audio #0
  ID : 0
  Format : Cooker
  Codec ID : cook
  Codec ID/Info : Based on G.722.1, Real Player 6
  Duration : 1h 20mn
  Bit rate : 64.1 Kbps
  Channel(s) : 2 channels
  Sampling rate : 44.1 KHz
  Bit depth : 16 bits
  Stream size : 37.0 MiB (13%)
TRAILER:
DETALE TORRENTA:[ Pokaż/Ukryj ]
Podziękowali:

Brak komentarzy

Zaloguj się aby skomentować