FACEBOOK
GOOGLE+

  • *
Głosów: 0
Za Szybcy, Za Wściekli - 2 Fast 2 Furious *2003*[1080p.DTS-HD MA.5.1.AC3.BluRay.x264-LEON 345] [Lektor i Napisy PL]
(11-11-2013)
Dodał: sonywwo
Rozmiar: 13.34 GB
Seed: 24
Peer: 113
Komentarzy: 0

Za Szybcy, Za Wściekli - 2 Fast 2 Furious *2003*[1080p.DTS-HD MA.5.1.AC3.BluRay.x264-LEON 345] [Lektor i Napisy PL]

Kategoria: FILMY Z LEKTOREM -> HD / x264
Zaakceptował: AgusiQ
Liczba pobrań: 4
Liczba komentarzy: 0
Ostatnia aktualizacja: 2013-11-11 18:09:58
OPIS


Produkcja: Niemcy, USA
Gatunek: Sensacyjny, Akcja
Data premiery: 2003-06-20 (Polska), 2003-06-03 (Świat)
Reżyseria: John Singleton
Scenariusz: Michael Brandt, Derek Haas
Zdjęcia: Matthew F. Leonetti
Muzyka: Kaseem Dean
IMDB: http://www.imdb.com/title/tt0322259/?ref_=nv_sr_1


FBI w Miami bezskutecznie usiłuje znaleźć podstawę do aresztowania Cartera Verone, biznesmena, który zajmuje się praniem brudnych pieniędzy. Jedyną drogą do namierzenia Verone'a staje się wejście w środowisko nielegalnych wyścigów samochodowych. Misja jest tajna, niebezpieczna, a podejmuje się jej eks-policjant Brian O'Connor. Pomaga mu przyjaciel z dzieciństwa, Roman Pearce, również miłośnik szaleńczo szybkiej jazdy.



Paul Walker : Brian O'Conner
Tyrese Gibson : Roman Pearce
Eva Mendes : Monica Fuentes
Thom Barry : Agent Bilkins
Devon Aoki : Suki
Amaury Nolasco : Orange Julius
Ludacris : Tej
James Remar : Markham
Cole Hauser : Carter Verone
Eric Etebari : Scott Dardin
Michael Ealy : Slap Jack
Matt Gallini : Enquirqe
Rey-Phillip Santos : Roberto
Lahmard J. Tate : Flip
Jin Auyeung : JimmyPaul Walker : Brian O'Conner
Tyrese Gibson : Roman Pearce
Eva Mendes : Monica Fuentes
Thom Barry : Agent Bilkins
Devon Aoki : Suki
Amaury Nolasco : Orange Julius
Ludacris : Tej
James Remar : Markham
Cole Hauser : Carter Verone
Eric Etebari : Scott Dardin
Michael Ealy : Slap Jack
Matt Gallini : Enquirqe
Rey-Phillip Santos : Roberto
Lahmard J. Tate : Flip
Jin Auyeung : Jimmy



General
Format : Matroska
Format version : Version 2
File size : 13.3 GiB
Duration : 1h 47mn
Overall bit rate mode : Variable
Overall bit rate : 17.8 Mbps
Encoded date : UTC 2013-10-29 23:16:40
Writing application : mkvmerge v5.7.0 ('The Whirlwind') built on Jul 8 2012 20:08:51
Writing library : libebml v1.2.3 + libmatroska v1.3.0

Video
ID : 1
Format : AVC
Format/Info : Advanced Video Codec
Format profile : High@L4.1
Format settings, CABAC : Yes
Format settings, ReFrames : 4 frames
Codec ID : V_MPEG4/ISO/AVC
Duration : 1h 47mn
Nominal bit rate : 11.5 Mbps
Width : 1 920 pixels
Height : 1 080 pixels
Display aspect ratio : 16:9 (2.39:1)
Frame rate mode : Constant
Frame rate : 23.976 fps
Color space : YUV
Chroma subsampling : 4:2:0
Bit depth : 8 bits
Scan type : Progressive
Bits/(Pixel*Frame) : 0.231
Title : Rip by Leon 345
Writing library : x264 core 128 r2216
Default : Yes
Forced : No

Audio #1
ID : 2
Format : AC-3
Format/Info : Audio Coding 3
Mode extension : CM (complete main)
Format settings, Endianness : Big
Codec ID : A_AC3
Duration : 1h 47mn
Bit rate mode : Constant
Bit rate : 640 Kbps
Channel(s) : 6 channels
Channel positions : Front: L C R, Side: L R, LFE
Sampling rate : 48.0 KHz
Bit depth : 16 bits
Compression mode : Lossy
Stream size : 493 MiB (4%)
Title : AC3 5.1 Lektor PL
Language : Polish
Default : Yes
Forced : Yes

Audio #2
ID : 3
Format : AC-3
Format/Info : Audio Coding 3
Mode extension : CM (complete main)
Format settings, Endianness : Big
Codec ID : A_AC3
Duration : 1h 47mn
Bit rate mode : Constant
Bit rate : 640 Kbps
Channel(s) : 6 channels
Channel positions : Front: L C R, Side: L R, LFE
Sampling rate : 48.0 KHz
Bit depth : 16 bits
Compression mode : Lossy
Stream size : 493 MiB (4%)
Title : AC3 5.1
Language : English
Default : No
Forced : No

Audio #3
ID : 4
Format : DTS
Format/Info : Digital Theater Systems
Mode : 16
Format settings, Endianness : Big
Codec ID : A_DTS
Duration : 1h 47mn
Bit rate mode : Constant
Bit rate : 768 Kbps
Channel(s) : 6 channels
Channel positions : Front: L C R, Side: L R, LFE
Sampling rate : 48.0 KHz
Bit depth : 24 bits
Compression mode : Lossy
Stream size : 591 MiB (4%)
Title : DTS 5.1 Lektor PL Orginal
Language : Polish
Default : No
Forced : No

Audio #4
ID : 5
Format : DTS
Format/Info : Digital Theater Systems
Format profile : MA / Core
Mode : 16
Format settings, Endianness : Big
Codec ID : A_DTS
Duration : 1h 47mn
Bit rate mode : Variable
Bit rate : 4559 / 1 509 Kbps
Channel(s) : 6 channels
Channel positions : Front: L C R, Side: L R, LFE
Sampling rate : 48.0 KHz
Bit depth : 24 bits
Compression mode : Lossless / Lossy
Title : DTS-HD MA 5.1 Orginal
Language : English
Default : No
Forced : No

Text #1
ID : 6
Format : PGS
Muxing mode : zlib
Codec ID : S_HDMV/PGS
Codec ID/Info : The same subtitle format used on BDs/HD-DVDs
Language : English
Default : No
Forced : No

Text #2
ID : 7
Format : PGS
Muxing mode : zlib
Codec ID : S_HDMV/PGS
Codec ID/Info : The same subtitle format used on BDs/HD-DVDs
Language : Polish
Default : No
Forced : No

Text #3
ID : 8
Format : UTF-8
Codec ID : S_TEXT/UTF8
Codec ID/Info : UTF-8 Plain Text
Default : Yes
Forced : Yes

Source [thx]:
A/V-2 Fast 2 Furious (2003) Blu-ray CEE 1080p VC-1 DTS 5.1 -G52
DETALE TORRENTA:[ Pokaż/Ukryj ]
Podziękowali:

Brak komentarzy

Zaloguj się aby skomentować