The Lego Movie / LEGO® PRZYGODA (2014) [CAM.XViD-BL4CKP34RL] [ENG]
Dodał: TheCrow
(10-02-2014)
Komentarze: 0
  • *

The Lego Movie / LEGO® PRZYGODA (2014) [CAM.XViD-BL4CKP34RL] [ENG]


Kategoria: FILMY / DIVX / XVID

Zaakceptował: nie wymagał akceptacji
Liczba pobrań: 0
Ostatnia aktualizacja: 2014-02-10 21:08:56

Rozmiar: 1.39 GB format: DIVX / XVID Seed: 49Peer: 295
Info Obsada Opis Szczegóły Zdjęcia/filmy Komentarze
[info]
Tytuł: The Lego Movie / LEGO® PRZYGODA
Ocena: IMDB - 8.7/10 (9898), Filmweb - 7.5/10 (472)

Produkcja: Australia, Dania, USA
Gatunek: Animacja, Komedia, Akcja
Czas trwania: 93 min.
Premiera: 07.02.2014 - Polska, 06.02.2014 - Świat
Reżyseria: Phil Lord, Christopher Miller, Agnieszka Zwolińska
Scenariusz: Dan Hageman, Kevin Hageman, Jakub Kowalczyk

[/opis]
[obsada]
Will Arnett, Elizabeth Banks, Craig Berry, Alison Brie

[/info]
[opis]
Emmet, przeciętna minifigurka LEGO, zostaje przypadkowo wzięty za postać stanowiącą klucz do ocalenia świata. W ten sposób dołącza do niesamowitej drużyny, która ma za zadanie powstrzymanie złowrogiego tyrana.

[/obsada]
[dane]
DETAILS:
Format : AVI
Format/Info : Audio Video Interleave
File size : 1.37 GiB
Duration : 1h 33mn
Overall bit rate : 2 109 Kbps
Writing application : Lavf52.84.0
Writing library : VirtualDub build 32839/release

Video
ID : 0
Format : MPEG-4 Visual
Format profile : Advanced Simple@L5
Format settings, BVOP : 2
Format settings, QPel : Yes
Format settings, GMC : No warppoints
Format settings, Matrix : Default (H.263)
Muxing mode : Packed bitstream
Codec ID : XVID
Codec ID/Hint : XviD
Duration : 1h 33mn
Bit rate : 1 970 Kbps
Width : 720 pixels
Height : 320 pixels
Display aspect ratio : 2.25:1
Frame rate : 29.970 fps
Color space : YUV
Chroma subsampling : 4:2:0
Bit depth : 8 bits
Scan type : Progressive
Compression mode : Lossy
Bits/(Pixel*Frame) : 0.285
Stream size : 1.28 GiB (93%)
Writing library : XviD 64

Audio
ID : 1
Format : MPEG Audio
Format version : Version 1
Format profile : Layer 3
Codec ID : 55
Codec ID/Hint : MP3
Duration : 1h 32mn
Bit rate mode : Constant
Bit rate : 128 Kbps
Channel(s) : 1 channel
Sampling rate : 44.1 KHz
Compression mode : Lossy
Stream size : 84.7 MiB (6%)
Alignment : Split accross interleaves
Interleave, duration : 34 ms (1.01 video frame)
Writing library : LAME3.99r
Encoding settings : -m m -V 4 -q 2 -lowpass 20.5 -b 128

SOURCES:
VIDEO: ............. lego.2014.TSHQ.LATINO ...thanks
AUDIO: ............. a friend ...thanks

[/dane]
SCREENY:
                
TRAILER:
Brak komentarzy

Zaloguj się aby skomentować

Podobne pliki

LEGO Przygoda / LEGO: The Movie (2014) [WEBRip.XviD-BiDA] [ENG] [Napisy PL]LEGO Przygoda - LEGO: The Movie *2014* [BRRip] [XViD-MORS] [Dubbing PL]Lego Przygoda / LEGO: The Movie (2014) [BRRip.XviD-BiDA] [Dubbing PL]LEGO Przygoda / LEGO: The Movie (2014) [480p] [BRRip.XviD.AC3-sav] [Dubbing PL]